(navigation image)
Home Audio Books & Poetry | Community Audio | Computers & Technology | Grateful Dead | Live Music Archive | Music, Arts & Culture | Netlabels | News & Public Affairs | Non-English Audio | Podcasts | Radio Programs | Spirituality & Religion | The Shady Trees
Search: Advanced Search
Anonymous User (login or join us)
Upload

Listen to audio

item image

Stream (help[help])

VBR M3U
MP3 via M3U

Play / Download (help[help])

VBR ZIP

Ogg Vorbis

Lossless zip


All Files: HTTPS Torrent (2/0)

Resources

Bookmark

Club d'ElfClub d'Elf Live at Lizard Lounge on 2012-04-06 (April 6, 2012)

something has gone horribly wrong 8-p
Prefer flash? · Embed · Questions/Feedback?


Collection: ClubdElf
Band/Artist: Club d'Elf
Date: April 6, 2012 (check for other copies)
Venue: Lizard Lounge
Location: Cambridge, MA

Source: Audio Technica 4050(cardiod,-10db pad)>Edirol R4(16bit/44.1khz) & Soundboard>R4
Lineage: WAV>Macbook pro>Audacity(mixing)>Wave Editor(tracking,fades)>XACt(fix sbe,FLAC 8,ffp)
Taped by: funkybret
Transferred by: Andy Murray


Description

Set 1

01 Intro
02 Invisible Landscape
03 Nematodes
04 Dreams Met(Yes)
05 Wist
06 Quilty
07 Ecstatic Cling (Papone)
08 Band Intros

Set 2

01 Intro
02 End Of Firpo
03 Dream Wanderer

Notes

Club d'Elf
2012-04-06
Lizard Lounge
Cambridge, MA

Recorded by funkybret

Mixed and transferred by Andy Murray

Mics were onstage

Audio Technica 4050(cardiod,-10db pad)>Edirol R4(16bit/44.1khz) & Soundboard>R4

WAV>Macbook pro>Audacity(mixing)>Wave Editor(tracking,fades)>XACt(fix sbe,FLAC 8,ffp)

Randy Roos (guitar)
Paul Schultheis (Moog & Rhodes)
Mister Rourke (turntables)
Mike Rivard (bass, sintir & bass kalimba)
Vicente Lebron (congas & perc)
Dean Johnston (drums)
Leo Blanco (melodica & perc)
John Aruda (tenor sax)

2 Sets

;flac fingerprints generated by xACT 2.16 on 2012-04-15 19:04:49 -0400

length expanded size cdr WAVE problems fmt ratio filename
0:37.63 6675020 B --- -- ----- wav 1.0000 delf2012-04-06_at4050sbmix_1644_d1t01.wav
13:39.02 144476348 B --- -- ----- wav 1.0000 delf2012-04-06_at4050sbmix_1644_d1t02.wav
16:32.70 175153484 B --- -- ----- wav 1.0000 delf2012-04-06_at4050sbmix_1644_d1t03.wav
17:06.01 180988796 B --- -- ----- wav 1.0000 delf2012-04-06_at4050sbmix_1644_d1t04.wav
21:33.36 228169916 B --- -- ----- wav 1.0000 delf2012-04-06_at4050sbmix_1644_d1t05.wav
16:34.20 175388684 B --- -- ----- wav 1.0000 delf2012-04-06_at4050sbmix_1644_d1t06.wav
18:06.65 191723324 B --- -- ----- wav 1.0000 delf2012-04-06_at4050sbmix_1644_d1t07.wav
2:22.32 25124108 B --- -- ----- wav 1.0000 delf2012-04-06_at4050sbmix_1644_d1t08.wav
0:34.41 6094076 B --- -- ----- wav 1.0000 delf2012-04-06_at4050sbmix_1644_d2t01.wav
29:22.13 310847420 B --- -- ----- wav 1.0000 delf2012-04-06_at4050sbmix_1644_d2t02.wav
18:17.73 193682540 B --- -- ----- wav 1.0000 delf2012-04-06_at4050sbmix_1644_d2t03.wav
154:47.41 1638323716 B 1.0000 (11 files)

Individual Files

Audio Files Flac VBR MP3 Ogg Vorbis
Intro 2.5 MB
861.1 KB
411.1 KB
Invisible Landscape 67.7 MB
18.6 MB
8.8 MB
Nematodes 87.7 MB
22.7 MB
10.9 MB
Dreams Met(Yes) 89.0 MB
23.7 MB
11.2 MB
Wist 104.4 MB
29.7 MB
13.9 MB
Quilty 86.4 MB
22.7 MB
10.7 MB
Ecstatic Cling(Papone) 91.2 MB
24.5 MB
11.5 MB
Band Intros 9.3 MB
3.1 MB
1.6 MB
Intro 2.2 MB
755.2 KB
366.5 KB
End Of Firpo 158.9 MB
40.7 MB
19.5 MB
Dream Wanderer 94.5 MB
25.7 MB
12.3 MB
Information FormatSize
delf2012-04-06.at4050sbmix_16bit.ffp Flac FingerPrint 836.0 B
delf2012-04-06.at4050sbmix_16bit.md5 Checksums 847.0 B
delf2012-04-06.at4050sbmix_16bit_files.xml Metadata [file]
delf2012-04-06.at4050sbmix_16bit_meta.xml Metadata 3.8 KB
delf2012-04-06.at4050sbmix_16bit_reviews.xml Metadata 489.0 B
Other Files Archive BitTorrent Text
delf2012-04-06.at4050sbmix_16bit_archive.torrent 30.1 KB
ffp 908.0 B
info 2.9 KB

Write a review
Downloaded 237 times
Reviews
Average Rating: 5.00 out of 5 stars5.00 out of 5 stars5.00 out of 5 stars5.00 out of 5 stars5.00 out of 5 stars

Reviewer: snzimmer - 5.00 out of 5 stars5.00 out of 5 stars5.00 out of 5 stars5.00 out of 5 stars5.00 out of 5 stars - October 10, 2012
Subject: Awesome
This show rocks. One of my favorite d'elf shows.